DL-List and Torrent activity
Size:  68.58 GB   |    Registered:  14 days   |    Completed:  0 times
Seeders:  9  [  0 KB/s  ]   Leechers:  4  [  0 KB/s  ]   Show peers in full details
   
  1. Longevity:
    8 years 2 months
    Posts:
    15
    Gender:
    Male
    Информация о фильме
    Название: Первому игроку приготовиться
    Оригинальное название: Ready Player One
    Год выхода: 2018
    Жанр: Фантастика, боевик, приключения
    Режиссер: Стивен Спилберг
    В ролях: Тай Шеридан, Оливия Кук, Бен Мендельсон, Лина Уэйте, ТиДжей Миллер, Саймон Пегг, Марк Райлэнс, Филип Чжао, Уин Морисаки, Ханна Джон-Кэймен, Ралф Айнесон, Сьюзэн Линч, Клер Хиггинс, Лоуренс Спэллман, Пердита Викс, Джоэль МакКормэк, Кит Коннор, Лео Хеллер, Линн Уилморт
    О фильме:
    Действие фильма происходит в 2045 году, мир погружается в хаос и находится на грани коллапса. Люди ищут спасения в игре OASIS — огромной вселенной виртуальной реальности. Ее создатель, гениальный и эксцентричный Джеймс Холлидэй, оставляет уникальное завещание. Все его колоссальное состояние получит игрок, первым обнаруживший цифровое «пасхальное яйцо», которое миллиардер спрятал где-то на просторах OASISа. Запущенный им квест охватывает весь мир. Совершенно негероический парень по имени Уэйд Уоттс решает принять участие в состязании, с головой бросаясь в головокружительную, искажающую реальность погоню за сокровищами по фантастической вселенной, полной загадок, открытий и опасностей.
    Страна: США
    Студия: Warner Bros. Pictures, Amblin Entertainment, Village Roadshow Pictures, De Line Pictures, Dune Entertainment
    Продолжительность: 02:19:56
    Перевод: Дублированный[Лицензия], профессиональный многоголосый, авторский
    Файл
    Формат: MKV
    Кодек: H.265
    Качество: UHD BDRemux 2160p
    Видео: HEVC HDR, Dolby Vision Profile 8, 63 Mбит/с, 3840x2160, 23.976 кадр/с
    Звук:
    Аудио #1 Русский: AC3, 48.0 kHz, 5.1 ch, 384 Kbps | [Дублированный]
    Аудио #2 Русский: AC3, 48.0 kHz, 5.1 ch, 448 Kbps | [HDRezka Studio]
    Аудио #3 Русский: DTS-HD MA 48.0 kHz, 7.1 ch, 2630 Kbps | [Ю.Сербин]
    Аудио #4 English: Dolby TrueHD with Atmos, 48.0 kHz, 7.1 ch, 3218 Kbps
    Аудио #5 English: AC3, 48.0 kHz, 5.1 ch, 448 Kbps
    Субтитры: Русские(forced, полные), английские
    Дополнительная информация:
    Данный вид релизов в MKV сделан в 8-м профиле Dolby Vision для воспроизведении на устройствах с поддержкой DV. Протестировано на тв-боксах Nvidia Shield 2019, Zidoo Z1000 Pro, Ugoos AM6+, TiVo Stream 4K. Не точно подтверждено воспроизведение на телевизорах Sony XG/XH и Phillips. На устройствах без поддержки Dolby Vision будет играть обычный HDR10.
    Программные плееры для воспроизведения в DV(на поддерживаемых устройствах): Vimu Player 8.8.8(и выше), Kodi 19(специальная сборка с поддержкой DV), ExoPlayer, JustPlayer

    MediaInfo

    General
    Unique ID : 176245144545729472968602857026165390150 (0x84979484464168F14F7EE518390FBB46)
    Complete name : C:UsersVortexDesktopReleaseReady.Player.One.2018.2160p.UHD.BDRemux.HDR.DV.x265.TrueHD7.1-DVT.mkv
    Format : Matroska
    Format version : Version 2
    File size : 68.6 GiB
    Duration : 2 h 19 min
    Overall bit rate mode : Variable
    Overall bit rate : 70.1 Mb/s
    Movie name : Ready Player One (2018) - Release by Dolby Vision Torrents
    Encoded date : UTC 2021-06-14 12:18:15
    Writing application : MakeMKV v1.16.3 win(x64-release)
    Writing library : libmakemkv v1.16.3 (1.3.10/1.5.2) win(x64-release)
    Cover : Yes
    Attachments : Cover.jpg
    Video
    ID : 1
    Format : HEVC
    Format/Info : High Efficiency Video Coding
    Format profile : Main 10@L5.1@High
    HDR format : Dolby Vision, Version 1.0, dvhe.08.06, BL+RPU, Blu-ray compatible / SMPTE ST 2086, HDR10 compatible
    Codec ID : V_MPEGH/ISO/HEVC
    Duration : 2 h 19 min
    Bit rate : 63.0 Mb/s
    Width : 3 840 pixels
    Height : 2 160 pixels
    Display aspect ratio : 16:9
    Frame rate mode : Constant
    Frame rate : 23.976 (24000/1001) FPS
    Color space : YUV
    Chroma subsampling : 4:2:0 (Type 2)
    Bit depth : 10 bits
    Bits/(Pixel*Frame) : 0.317
    Stream size : 61.6 GiB (90%)
    Title : Remux by VoX
    Language : English
    Default : No
    Forced : No
    Color range : Limited
    Color primaries : BT.2020
    Transfer characteristics : PQ
    Matrix coefficients : BT.2020 non-constant
    Mastering display color pri : BT.2020
    Mastering display luminance : min: 0.0050 cd/m2, max: 4000 cd/m2
    Maximum Content Light Level : 725 cd/m2
    Maximum Frame-Average Light : 162 cd/m2
    Audio #1
    ID : 2
    Format : AC-3
    Format/Info : Audio Coding 3
    Commercial name : Dolby Digital
    Codec ID : A_AC3
    Duration : 2 h 19 min
    Bit rate mode : Constant
    Bit rate : 384 kb/s
    Channel(s) : 6 channels
    Channel layout : L R C LFE Ls Rs
    Sampling rate : 48.0 kHz
    Frame rate : 31.250 FPS (1536 SPF)
    Compression mode : Lossy
    Stream size : 384 MiB (1%)
    Title : Dub, UHD Blu-Ray
    Language : Russian
    Service kind : Complete Main
    Default : Yes
    Forced : No
    Audio #2
    ID : 3
    Format : AC-3
    Format/Info : Audio Coding 3
    Commercial name : Dolby Digital
    Codec ID : A_AC3
    Duration : 2 h 19 min
    Bit rate mode : Constant
    Bit rate : 448 kb/s
    Channel(s) : 6 channels
    Channel layout : L R C LFE Ls Rs
    Sampling rate : 48.0 kHz
    Frame rate : 31.250 FPS (1536 SPF)
    Compression mode : Lossy
    Stream size : 448 MiB (1%)
    Title : MVO, HDRezka Studio
    Language : Russian
    Service kind : Complete Main
    Default : No
    Forced : No
    Audio #3
    ID : 4
    Format : DTS XLL
    Format/Info : Digital Theater Systems
    Commercial name : DTS-HD Master Audio
    Codec ID : A_DTS
    Duration : 2 h 19 min
    Bit rate mode : Variable
    Bit rate : 2 630 kb/s
    Channel(s) : 8 channels
    Channel layout : C L R LFE Lb Rb Lss Rss
    Sampling rate : 48.0 kHz
    Frame rate : 93.750 FPS (512 SPF)
    Bit depth : 16 bits
    Compression mode : Lossless
    Stream size : 2.57 GiB (4%)
    Title : AVO, Ю.Сербин
    Language : Russian
    Default : No
    Forced : No
    Audio #4
    ID : 5
    Format : MLP FBA 16-ch
    Format/Info : Meridian Lossless Packing FBA with 16-channel presentation
    Commercial name : Dolby TrueHD with Dolby Atmos
    Codec ID : A_TRUEHD
    Duration : 2 h 19 min
    Bit rate mode : Variable
    Bit rate : 3 218 kb/s
    Maximum bit rate : 5 004 kb/s
    Channel(s) : 8 channels
    Channel layout : L R C LFE Ls Rs Lb Rb
    Sampling rate : 48.0 kHz
    Frame rate : 1 200.000 FPS (40 SPF)
    Bit depth : 24 bits
    Compression mode : Lossless
    Stream size : 3.15 GiB (5%)
    Title : Original
    Language : English
    Default : No
    Forced : No
    Number of dynamic objects : 11
    Bed channel count : 1 channel
    Bed channel configuration : LFE
    Audio #5
    ID : 6
    Format : AC-3
    Format/Info : Audio Coding 3
    Commercial name : Dolby Digital
    Format settings : Dolby Surround EX
    Codec ID : A_AC3
    Duration : 2 h 19 min
    Bit rate mode : Constant
    Bit rate : 448 kb/s
    Channel(s) : 6 channels
    Channel layout : L R C LFE Ls Rs
    Sampling rate : 48.0 kHz
    Frame rate : 31.250 FPS (1536 SPF)
    Compression mode : Lossy
    Stream size : 448 MiB (1%)
    Title : Original
    Language : English
    Service kind : Complete Main
    Default : No
    Forced : No
    Text #1
    ID : 7
    Format : UTF-8
    Codec ID : S_TEXT/UTF8
    Codec ID/Info : UTF-8 Plain Text
    Duration : 2 h 10 min
    Bit rate : 2 b/s
    Count of elements : 42
    Stream size : 2.21 KiB (0%)
    Title : Forced
    Language : Russian
    Default : Yes
    Forced : No
    Text #2
    ID : 8
    Format : UTF-8
    Codec ID : S_TEXT/UTF8
    Codec ID/Info : UTF-8 Plain Text
    Duration : 2 h 10 min
    Bit rate : 92 b/s
    Count of elements : 1411
    Stream size : 88.8 KiB (0%)
    Title : Full
    Language : Russian
    Default : No
    Forced : No
    Text #3
    ID : 9
    Format : UTF-8
    Codec ID : S_TEXT/UTF8
    Codec ID/Info : UTF-8 Plain Text
    Duration : 1 s 502 ms
    Bit rate : 143 b/s
    Count of elements : 1
    Stream size : 27.0 Bytes (0%)
    Title : Forced
    Language : English
    Default : No
    Forced : No
    Text #4
    ID : 10
    Format : UTF-8
    Codec ID : S_TEXT/UTF8
    Codec ID/Info : UTF-8 Plain Text
    Duration : 2 h 18 min
    Bit rate : 54 b/s
    Count of elements : 1615
    Stream size : 55.7 KiB (0%)
    Title : Full
    Language : English
    Default : No
    Forced : No
    Text #5
    ID : 11
    Format : UTF-8
    Codec ID : S_TEXT/UTF8
    Codec ID/Info : UTF-8 Plain Text
    Duration : 2 h 18 min
    Bit rate : 59 b/s
    Count of elements : 1841
    Stream size : 60.8 KiB (0%)
    Title : SDH
    Language : English
    Default : No
    Forced : No
    Menu
    00:00:00.000 : :00:00:00.000
    00:10:08.232 : :00:10:08.233
    00:20:18.258 : :00:20:18.259
    00:30:37.460 : :00:30:37.627
    00:40:38.269 : :00:40:38.269
    00:50:08.964 : :00:50:08.964
    01:03:01.444 : :01:03:01.778
    01:11:54.935 : :01:11:55.269
    01:20:14.518 : :01:20:14.727
    01:30:57.994 : :01:30:58.328
    01:43:26.742 : :01:43:26.742
    01:53:02.150 : :01:53:02.150
    02:04:20.161 : :02:04:20.161
    02:09:17.040 : :02:09:17.249
    [rutor.is]Ready_Player_One_2018_2160p_UHD_BDRemux_HDR_DV_.torrent
    Registered 2022-11-24 08:03
    7CFCB293F6B9C6B872FAB9044ACD8BA78C76BE60
    checked
    0 times
    9 [0 KB/s]
    4 [0 KB/s]